extratorrent - A Fan Made Alternative Login   |   Register
Important Information
Registrations are open now
-------------------------------------

Please click here to register with Extratorrent2 to recieve latest updates, add bookmarks and to post comments.

Friends
Friends

1) ProxyFix

Extratorrent2 > Categories > TV > The Flash (Things You Can't Outrun) S01.E03 (2014) BluRay - 720p - [Hindi ( Org) + Eng]-420MB [MovCr] torrent


Browse TV torrents

The Flash (Things You Can't Outrun) S01.E03 (2014) BluRay - 720p - [Hindi ( Org) + Eng]-420MB [MovCr] torrent


Download torrent: Download The Flash (Things You Can't Outrun) S01.E03 (2014) BluRay - 720p - [Hindi ( Org) + Eng]-420MB [MovCr] torrent Magnet link Bookmark Torrent: The Flash (Things You Can't Outrun) S01.E03 (2014) BluRay - 720p - [Hindi ( Org) + Eng]-420MB [MovCr]   The Flash (Things You Can't Outrun) S01.E03 (2014) BluRay - 720p - [Hindi ( Org) + Eng]-420MB [MovCr] torrent
Info hash: 2D38E6DB407DE4EB8A8118A3DC6DAF0C56F38083
Category: Categories > TV
Trackers:
View all torrent trackers >
Health:
 seeds: 7 ,  leechers: 1 |  Update >
Torrent language: Hindi Hindi
Total Size: 421.4 MB
Files List:
1    View torrent files >
Uploader:
ictv
Torrent added: September 2, 2018, 5:20 pm
Tags: "Action", "Adventure", "Drama"
IMDB: http://www.imdb.com/title/tt3826166
Users rating: ---, not rated. please login to rate.

Download The Flash (Things You Can't Outrun) S01.E03 (2014) BluRay - 720p - [Hindi ( Org) + Eng]-420MB [MovCr] torrent



Torrent Description

Our Site   www.movcr.com


The Flash (Things You Can't Outrun) S01.E03 (2014) BluRay - 720p - [Hindi ( Org) + Eng]-440MB [MovCr]



http://www.imdb.com/title/tt3826166/?ref_=ttep_ep3



General
Unique ID                                : 85916577389567241635518041149694279062 (0x40A2EE503559D69FEECEC6837B3BFD96)
Complete name                            : D:\www.MovCr.com - The Flash (Things You Can't Outrun) S01.E03 (2014) BluRay - 720p - [Hindi ( Org) + Eng]-400MB [MovCr].mkv
Format                                   : Matroska
Format version                           : Version 4 / Version 2
File size                                : 421 MiB
Duration                                 : 42 min 23 s
Overall bit rate                         : 1 390 kb/s
Movie name                               : www.MovCr.com
Encoded date                             : UTC 2018-08-26 13:43:51
Writing application                      : mkvmerge v23.0.0 ('The Bride Said No') 64-bit
Writing library                          : libebml v1.3.6 + libmatroska v1.4.9

Video
ID                                       : 1
Format                                   : AVC
Format/Info                              : Advanced Video Codec
Format profile                           :
Format settings                          : CABAC / 4 Ref Frames
Format settings, CABAC                   : Yes
Format settings, RefFrames               : 4 frames
Codec ID                                 : V_MPEG4/ISO/AVC
Duration                                 : 42 min 22 s
Bit rate                                 : 1 170 kb/s
Width                                    : 1 280 pixels
Height                                   : 720 pixels
Display aspect ratio                     : 16:9
Frame rate mode                          : Constant
Frame rate                               : 23.976 (24000/1001) FPS
Color space                              : YUV
Chroma subsampling                       : 4:2:0
Bit depth                                : 8 bits
Scan type                                : Progressive
Bits/(Pixel*Frame)                       : 0.053
Stream size                              : 352 MiB (84%)
Title                                    : www.MovCr.com
Writing library                          : x264 core 155 r2901 7d0ff22
Encoding settings                        : cabac=1 / ref=1 / deblock=1:0:0 / analyse=0x1:0x111 / me=hex / subme=2 / psy=1 / psy_rd=1.00:0.00 / mixed_ref=0 / me_range=16 / chroma_me=1 / trellis=0 / 8x8dct=0 / cqm=0 / deadzone=21,11 / fast_pskip=1 / chroma_qp_offset=0 / threads=12 / lookahead_threads=4 / sliced_threads=0 / nr=0 / decimate=1 / interlaced=0 / bluray_compat=0 / constrained_intra=0 / bframes=3 / b_pyramid=2 / b_adapt=1 / b_bias=0 / direct=1 / weightb=1 / open_gop=0 / weightp=1 / keyint=240 / keyint_min=24 / scenecut=40 / intra_refresh=0 / rc_lookahead=10 / rc=abr / mbtree=1 / bitrate=1170 / ratetol=1.0 / qcomp=0.60 / qpmin=0 / qpmax=69 / qpstep=4 / vbv_maxrate=20000 / vbv_bufsize=25000 / nal_hrd=none / filler=0 / ip_ratio=1.40 / aq=1:1.00
Language                                 : English
Default                                  : Yes
Forced                                   : No
Color range                              : Limited
Color primaries                          : BT.709
Transfer characteristics                 : BT.709
Matrix coefficients                      : BT.709

Audio #1
ID                                       : 2
Format                                   : AAC
Format/Info                              : Advanced Audio Codec
Format profile                           : LC
Codec ID                                 : A_AAC-2
Duration                                 : 42 min 23 s
Bit rate                                 : 126 kb/s
Channel(s)                               : 2 channels
Channel positions                        : Front: L R
Sampling rate                            : 44.1 kHz
Frame rate                               : 43.066 FPS (1024 SPF)
Compression mode                         : Lossy
Delay relative to video                  : -46 ms
Stream size                              : 38.2 MiB (9%)
Title                                    : www.MovCr.com
Language                                 : Hindi
Default                                  : Yes
Forced                                   : Yes

Audio #2
ID                                       : 3
Format                                   : AAC
Format/Info                              : Advanced Audio Codec
Format profile                           : HE-AAC / LC
Format settings                          : Explicit
Codec ID                                 : A_AAC-2
Duration                                 : 42 min 23 s
Bit rate                                 : 99.8 kb/s
Channel(s)                               : 2 channels
Channel positions                        : Front: L R
Sampling rate                            : 48.0 kHz / 24.0 kHz
Frame rate                               : 23.438 FPS (1024 SPF)
Compression mode                         : Lossy
Delay relative to video                  : -15 ms
Stream size                              : 30.3 MiB (7%)
Title                                    : www.MovCr.com
Language                                 : English
Default                                  : No
Forced                                   : No

Text
ID                                       : 4
Format                                   : UTF-8
Codec ID                                 : S_TEXT/UTF8
Codec ID/Info                            : UTF-8 Plain Text
Duration                                 : 42 min 18 s
Bit rate                                 : 73 b/s
Count of elements                        : 586
Stream size                              : 22.8 KiB (0%)
Title                                    : www.MovCr.com
Language                                 : English
Default                                  : Yes
Forced                                   : No









Download The Flash (Things You Can't Outrun) S01.E03 (2014) BluRay - 720p - [Hindi ( Org) + Eng]-420MB [MovCr] torrent


Related Torrents


Comments   (please login to add your comment!)

interrogation     maigret s01     meat sandwich     the big     marc     1080p ac3 evo     truecaller premium     asian girl     analparadise     malayalam     hussieauditions lily rader     anissa kate     ariella ferrera nicolette shea     keisha grey pawg     payne     cecile     bad asses 2014     den skyldige     yui     blackpink     dearmond tommy     invoking     kino no tabi     unzip     


Home - Browse Torrents

Made with love by an Extratorrent Fan!