extratorrent - A Fan Made Alternative Login   |   Register
Important Information
Registrations are open now
-------------------------------------

Please click here to register with Extratorrent2 to recieve latest updates, add bookmarks and to post comments.

Friends
Friends

1) ProxyFix

Extratorrent2 > Categories > Movies > Pride & Prejudice (2005) 1080p BluRay x264 Dual Audio [Hindi DD5.1 - English DD5.1] - Msubs ~ Ranvijay torrent


Browse Movies torrents

Pride & Prejudice (2005) 1080p BluRay x264 Dual Audio [Hindi DD5.1 - English DD5.1] - Msubs ~ Ranvijay torrent


Download torrent: Download Pride & Prejudice (2005) 1080p BluRay x264 Dual Audio [Hindi DD5.1 - English DD5.1] - Msubs ~ Ranvijay torrent Magnet link Bookmark Torrent: Pride & Prejudice (2005) 1080p BluRay x264 Dual Audio [Hindi DD5.1 - English DD5.1] - Msubs ~ Ranvijay   Pride & Prejudice (2005) 1080p BluRay x264 Dual Audio [Hindi DD5.1 - English DD5.1] - Msubs ~ Ranvijay torrent
Info hash: 6FCC22890816701C06ED7B87A94675F3F8EDADD9
Category: Categories > Movies
Trackers:
View all torrent trackers >
Health:
 seeds: 3 ,  leechers: 3 |  Update >
Torrent language: Hindi Hindi
Total Size: 5.2 GB
Files List:
3    View torrent files >
Uploader:
TheFighter
Torrent added: August 11, 2018, 3:30 pm
Tags: Ranvijay, ShareSpark
Users rating: ---, not rated. please login to rate.

Download Pride & Prejudice (2005) 1080p BluRay x264 Dual Audio [Hindi DD5.1 - English DD5.1] - Msubs ~ Ranvijay torrent



Torrent Description





Pride & Prejudice (2005) 1080p BluRay x264 Dual Audio [Hindi DD5.1 - English DD5.1] - Msubs ~ Ranvijay

Thanks To Hammer For Hindi Audio

Buy RDP Online


Format                                   : Matroska
Format version                           : Version 4 / Version 2
File size                                : 5.18 GiB
Duration                                 : 2 h 6 min
Overall bit rate                         : 5 857 kb/s
Movie name                               : Pride & Prejudice (2005) 1080p BluRay x264 Dual Audio [Hindi DD5.1 - English DD5.1] - Msubs ~ Ranvijay

Video
ID                                       : 1
Format                                   : AVC
Format/Info                              : Advanced Video Codec
Duration                                 : 2 h 6 min
Bit rate                                 : 5 000 kb/s
Width                                    : 1 920 pixels
Height                                   : 822 pixels
Display aspect ratio                     : 2.35:1
Original display aspect ratio            : 2.35:1
Frame rate mode                          : Constant
Frame rate                               : 23.976 (24000/1001) FPS
Color space                              : YUV
Chroma subsampling                       : 4:2:0
Bit depth                                : 8 bits
Scan type                                : Progressive
Bits/(Pixel*Frame)                       : 0.132
Stream size                              : 4.42 GiB (85%)
Title                                    : ~Ranvijay~

Audio #1
ID                                       : 2
Format                                   : AC-3
Format/Info                              : Audio Coding 3
Codec ID                                 : A_AC3
Duration                                 : 2 h 6 min
Bit rate mode                            : Constant
Bit rate                                 : 384 kb/s
Channel(s)                               : 6 channels
Channel positions                        : Front: L C R, Side: L R, LFE
Sampling rate                            : 48.0 kHz
Frame rate                               : 31.250 FPS (1536 SPF)
Bit depth                                : 16 bits
Compression mode                         : Lossy
Delay relative to video                  : 1 s 517 ms
Stream size                              : 348 MiB (7%)
Title                                    : ~Ranvijay~
Language                                 : Hindi
Service kind                             : Complete Main
Default                                  : Yes
Forced                                   : No

Audio #2
ID                                       : 3
Format                                   : AC-3
Format/Info                              : Audio Coding 3
Codec ID                                 : A_AC3
Duration                                 : 2 h 6 min
Bit rate mode                            : Constant
Bit rate                                 : 448 kb/s
Channel(s)                               : 6 channels
Channel positions                        : Front: L C R, Side: L R, LFE
Sampling rate                            : 48.0 kHz
Frame rate                               : 31.250 FPS (1536 SPF)
Bit depth                                : 16 bits
Compression mode                         : Lossy
Delay relative to video                  : -83 ms
Stream size                              : 406 MiB (8%)
Title                                    : ~Ranvijay~
Language                                 : English
Service kind                             : Complete Main
Default                                  : No
Forced                                   : No

Text #1
ID                                       : 4
Format                                   : PGS
Muxing mode                              : zlib
Codec ID                                 : S_HDMV/PGS
Codec ID/Info                            : Picture based subtitle format used on BDs/HD-DVDs
Duration                                 : 1 h 59 min
Bit rate                                 : 23.6 kb/s
Count of elements                        : 2814
Stream size                              : 20.2 MiB (0%)
Title                                    : ~Ranvijay~
Language                                 : Hindi
Default                                  : Yes
Forced                                   : No

Text #2
ID                                       : 5
Format                                   : PGS
Muxing mode                              : zlib
Codec ID                                 : S_HDMV/PGS
Codec ID/Info                            : Picture based subtitle format used on BDs/HD-DVDs
Duration                                 : 1 h 59 min
Bit rate                                 : 47.4 kb/s
Count of elements                        : 3554
Stream size                              : 40.5 MiB (1%)
Title                                    : ~Ranvijay~
Language                                 : English
Default                                  : No
Forced                                   : No

Menu
00:00:00.000                             : en:00:00:00.000
00:07:19.606                             : en:00:07:19.606
00:16:10.511                             : en:00:16:10.511
00:23:32.286                             : en:00:23:32.286
00:31:09.284                             : en:00:31:09.284
00:38:58.878                             : en:00:38:58.878
00:45:50.039                             : en:00:45:50.039
00:54:40.068                             : en:00:54:40.068
01:02:25.158                             : en:01:02:25.158
01:12:51.450                             : en:01:12:51.450
01:18:31.373                             : en:01:18:31.373
01:25:08.937                             : en:01:25:08.937
01:33:41.658                             : en:01:33:41.658
01:43:22.988                             : en:01:43:22.988
01:49:13.338                             : en:01:49:13.338
02:00:15.834                             : en:02:00:15.834














Download Pride & Prejudice (2005) 1080p BluRay x264 Dual Audio [Hindi DD5.1 - English DD5.1] - Msubs ~ Ranvijay torrent


Related Torrents


Comments   (please login to add your comment!)


Home - Browse Torrents

Made with love by an Extratorrent Fan!