extratorrent - A Fan Made Alternative Login   |   Register
Important Information
Registrations are open now
-------------------------------------

Please click here to register with Extratorrent2 to recieve latest updates, add bookmarks and to post comments.

Friends
Friends

1) ProxyFix

Extratorrent2 > Categories > Movies > The Padre 2018 Movies 720p HDRip x264 5.1 ESubs with Sample ☻rDX☻ torrent


Browse Movies torrents

The Padre 2018 Movies 720p HDRip x264 5.1 ESubs with Sample ☻rDX☻ torrent


Download torrent: Download The Padre 2018 Movies 720p HDRip x264 5.1 ESubs with Sample ☻rDX☻ torrent Magnet link Bookmark Torrent: The Padre 2018 Movies 720p HDRip x264 5.1 ESubs with Sample ☻rDX☻   The Padre 2018 Movies 720p HDRip x264 5.1 ESubs with Sample ☻rDX☻ torrent
Info hash: AFC5B0B5D78217282F81DC55583426B0E65CC284
Category: Categories > Movies
Trackers:
View all torrent trackers >
Health:
 seeds: 5 ,  leechers: 2 |  Update >
Torrent language: English English
Total Size: 1.0 GB
Files List:
2    View torrent files >
Uploader:
nehalpuja
Torrent added: September 5, 2018, 3:30 pm
IMDB: http://www.imdb.com/title/tt6782276
Users rating: ---, not rated. please login to rate.

Download The Padre 2018 Movies 720p HDRip x264 5.1 ESubs with Sample ☻rDX☻ torrent



Torrent Description

The Padre 2018 Movies 720p HDRip x264 5.1 ESubs with Sample ☻rDX☻
===============================================================================================

SCREEN SHOTS:



or

http://iphonehosting.eu/2018/8/a/job/1.html

File size : 1.04 GiB
Duration : 1 h 35 min
Overall bit rate : 1 562 kb/s
Movie name : The Padre 2018 Movies 720p HDRip x264 5.1 ESubs ☻rDX☻

Video
ID : 2
Format : AVC
Format/Info : Advanced Video Codec
Format profile :
Format settings, CABAC : Yes
Format settings, ReFrames : 4 frames
Codec ID : V_MPEG4/ISO/AVC
Duration : 1 h 35 min
Bit rate : 1 200 kb/s
Width : 1 280 pixels
Height : 532 pixels
Display aspect ratio : 2.40:1
Frame rate mode : Constant
Frame rate : 23.976 (23976/1000) FPS
Original frame rate : 23.976 (24000/1001) FPS
Color space : YUV
Chroma subsampling : 4:2:0
Bit depth : 8 bits
Scan type : Progressive
Bits/(Pixel*Frame) : 0.073
Stream size : 780 MiB (73%)
Title : ☻rDX☻
Writing library : x264

Audio
ID : 1
Format : AC-3
Format/Info : Audio Coding 3
Mode extension : CM (complete main)
Format settings, Endianness : Big
Codec ID : A_AC3
Duration : 1 h 35 min
Bit rate mode : Constant
Bit rate : 384 kb/s
Channel(s) : 6 channels
Channel positions : Front: L C R, Side: L R, LFE
Sampling rate : 48.0 kHz
Frame rate : 31.250 FPS (1536 spf)
Bit depth : 16 bits
Compression mode : Lossy
Delay relative to video : -21 ms
Stream size : 261 MiB (25%)
Title : ☻rDX☻
Default : Yes
Forced : No

Text
ID : 3
Format : UTF-8
Codec ID : S_TEXT/UTF8
Codec ID/Info : UTF-8 Plain Text
Title : ☻rDX☻
Language : English
Default : Yes
Forced : No



IMDB : http://www.imdb.com/title/tt6782276


Download The Padre 2018 Movies 720p HDRip x264 5.1 ESubs with Sample ☻rDX☻ torrent


Related Torrents


Comments   (please login to add your comment!)


Home - Browse Torrents

Made with love by an Extratorrent Fan!