extratorrent - A Fan Made Alternative Login   |   Register
Important Information
Registrations are open now
-------------------------------------

Please click here to register with Extratorrent2 to recieve latest updates, add bookmarks and to post comments.

Friends
Friends

1) ProxyFix

Extratorrent2 > Categories > TV > 13 Reasons Why (2017) Season 01 S01 (2160p WEBRip x265 HEVC 10bit AAC 5.1 Joy) [UTR] torrent


Browse TV torrents

13 Reasons Why (2017) Season 01 S01 (2160p WEBRip x265 HEVC 10bit AAC 5.1 Joy) [UTR] torrent


Download torrent: Download 13 Reasons Why (2017) Season 01 S01 (2160p WEBRip x265 HEVC 10bit AAC 5.1 Joy) [UTR] torrent Magnet link Bookmark Torrent: 13 Reasons Why (2017) Season 01 S01 (2160p WEBRip x265 HEVC 10bit AAC 5.1 Joy) [UTR]   13 Reasons Why (2017) Season 01 S01 (2160p WEBRip x265 HEVC 10bit AAC 5.1 Joy) [UTR] torrent
Info hash: D7F3E2C7D9130F414F8AEEEB2176BE0CD62E3D36
Category: Categories > TV
Trackers:
View all torrent trackers >
Health:
 seeds: 4 ,  leechers: 2 |  Update >
Torrent language: English English
Total Size: 22.9 GB
Files List:
17    View torrent files >
Uploader:
UTRCorp
Torrent added: August 3, 2018, 4:37 pm
Users rating: ---, not rated. please login to rate.

Download 13 Reasons Why (2017) Season 01 S01 (2160p WEBRip x265 HEVC 10bit AAC 5.1 Joy) [UTR] torrent



Torrent Description








Media Information

Media Information

Code:

General
Format : Matroska
Format version : Version 4 / Version 2
File size : 1.61 GiB
Duration : 52 min 57 s
Overall bit rate : 4 363 kb/s
Encoded date : UTC 2017-05-12 12:03:32
Writing application : mkvmerge v11.0.0 ('Alive') 64bit
Writing library : libebml v1.3.4 + libmatroska v1.4.5
Writing frontend : StaxRip 1.4.3.3

Video
ID : 1
Format : HEVC
Format/Info : High Efficiency Video Coding
Format profile : Main @Main
Codec ID : V_MPEGH/ISO/HEVC
Duration : 52 min 38 s
Bit rate : 4 001 kb/s
Width : 3 840 pixels
Height : 2 160 pixels
Display aspect ratio : 16:9
Frame rate mode : Constant
Frame rate : 23.976 (24000/1001) FPS
Color space : YUV
Chroma subsampling : 4:2:0
Bit depth : 10 bits
Bits/(Pixel*Frame) : 0.020
Stream size : 1.47 GiB (91%)
Writing library : x265 2.4+6-fd01abfc7898:[Windows][MSVC 1910][64 bit] 10bit
Encoding settings : cpuid=1173503 / frame-threads=3 / numa-pools=8 / wpp / no-pmode / no-pme / no-psnr / no-ssim / log-level=2 / input-csp=1 / input-res=3840x2160 / interlace=0 / total-frames=75725 / level-idc=0 / high-tier=1 / uhd-bd=0 / ref=3 / no-allow-non-conformance / no-repeat-headers / annexb / no-aud / no-hrd / info / hash=0 / no-temporal-layers / open-gop / min-keyint=23 / keyint=250 / bframes=4 / b-adapt=2 / b-pyramid / bframe-bias=0 / rc-lookahead=20 / lookahead-slices=8 / scenecut=40 / no-intra-refresh / ctu=64 / min-cu-size=8 / no-rect / no-amp / max-tu-size=32 / tu-inter-depth=1 / tu-intra-depth=1 / limit-tu=0 / rdoq-level=0 / dynamic-rd=0.00 / no-ssim-rd / signhide / no-tskip / nr-intra=50 / nr-inter=50 / no-constrained-intra / strong-intra-smoothing / max-merge=2 / limit-refs=3 / no-limit-modes / me=1 / subme=2 / merange=57 / temporal-mvp / weightp / no-weightb / no-analyze-src-pics / deblock=0:0 / sao / no-sao-non-deblock / rd=3 / early-skip / rskip / fast-intra / no-tskip-fast / no-cu-lossless / no-b-intra / rdpenalty=0 / psy-rd=0.30 / psy-rdoq=0.00 / no-rd-refine / analysis-mode=0 / no-lossless / cbqpoffs=0 / crqpoffs=0 / rc=abr / bitrate=4000 / qcomp=0.60 / qpstep=4 / stats-write=0 / stats-read=2 / cplxblur=20.0 / qblur=0.5 / ipratio=1.40 / pbratio=1.30 / aq-mode=3 / aq-strength=1.00 / cutree / zone-count=0 / no-strict-cbr / qg-size=32 / no-rc-grain / qpmax=69 / qpmin=0 / sar=0 / overscan=0 / videoformat=5 / range=0 / colorprim=2 / transfer=2 / colormatrix=2 / chromaloc=0 / display-window=0 / max-cll=0,0 / min-luma=0 / max-luma=1023 / log2-max-poc-lsb=8 / vui-timing-info / vui-hrd-info / slices=1 / opt-qp-pps / opt-ref-list-length-pps / no-multi-pass-opt-rps / scenecut-bias=0.05 / no-opt-cu-delta-qp / no-aq-motion / no-hdr / no-hdr-opt / no-dhdr10-opt / refine-level=5 / no-limit-sao
Default : Yes
Forced : No

Audio
ID : 2
Format : AC-3
Format/Info : Audio Coding 3
Mode extension : CM (complete main)
Format settings, Endianness : Big
Codec ID : A_AC3
Duration : 52 min 57 s
Bit rate mode : Constant
Bit rate : 384 kb/s
Channel(s) : 6 channels
Channel positions : Front: L C R, Side: L R, LFE
Sampling rate : 48.0 kHz
Frame rate : 31.250 FPS (1536 spf)
Bit depth : 16 bits
Compression mode : Lossy
Stream size : 145 MiB (9%)
Language : English
Default : No
Forced : No

Subtitle #1
ID : 3
Format : UTF-8
Codec ID : S_TEXT/UTF8
Codec ID/Info : UTF-8 Plain Text
Duration : 51 min 55 s
Bit rate : 72 b/s
Count of elements : 876
Stream size : 27.5 KiB (0%)
Language : English
Default : No
Forced : No

Subtitle #1
ID : 4
Format : UTF-8
Codec ID : S_TEXT/UTF8
Codec ID/Info : UTF-8 Plain Text
Duration : 50 min 33 s
Bit rate : 59 b/s
Count of elements : 773
Stream size : 21.9 KiB (0%)
Language : Spanish
Default : No
Forced : No

Subtitle #1
ID : 5
Format : UTF-8
Codec ID : S_TEXT/UTF8
Codec ID/Info : UTF-8 Plain Text
Duration : 52 min 26 s
Bit rate : 59 b/s
Count of elements : 774
Stream size : 22.9 KiB (0%)
Language : French
Default : No
Forced : No

Subtitle #1
ID : 6
Format : UTF-8
Codec ID : S_TEXT/UTF8
Codec ID/Info : UTF-8 Plain Text
Duration : 52 min 14 s
Bit rate : 54 b/s
Count of elements : 785
Stream size : 21.0 KiB (0%)
Language : Chinese
Default : No
Forced : No

Subtitle #1
ID : 7
Format : UTF-8
Codec ID : S_TEXT/UTF8
Codec ID/Info : UTF-8 Plain Text
Duration : 52 min 14 s
Bit rate : 53 b/s
Count of elements : 785
Stream size : 20.4 KiB (0%)
Language : Chinese
Default : No
Forced : No



Source Information

Code:

Release:
13.Reasons.Why.S01E01.2160p.NF.WEBRip.DD5.1.x264-VLAD.mkv (15119930716 GBs)





Download 13 Reasons Why (2017) Season 01 S01 (2160p WEBRip x265 HEVC 10bit AAC 5.1 Joy) [UTR] torrent


Related Torrents


Comments   (please login to add your comment!)


Home - Browse Torrents

Made with love by an Extratorrent Fan!